Bilgi? 5 Bin Tl Para Ödülü Kazanmak İster misiniz ? Detaylı bilgi için ["TIKLAYINIZ."]
#BaşvuruYap Yetkili Alımları Başlamıştır! Sitede Görevli Olmak İsteyen Arkadaşlar Konuyu İnceleyebilir, Detaylar İçin: ["TIKLAYINIZ."]
Süper:) VİP Üyelik Ayrıcalıklarından Yararlanmak İçin Buraya! Ömür Boyu VİP Üye Olabilirsiniz Detaylar Konumuzda: ["TIKLAYINIZ."]
Dikkat! Emeklere Karşılık Olarak Konulara Yorumlarını Eksik Etmeyiniz. Kurallara Uymayanlar Siteden Men Edilecektir! Torrentleri Seed Ediniz.!
Konuyu Oyla:
  • Derecelendirme: 0/5 - 0 oy
  • 1
  • 2
  • 3
  • 4
  • 5
Terkedilmiş - The Abandoned (2015) HDRip XviD HDTurk - Türkçe Dublaj - Torrent İndir
10-04-2016, Saat: 14:29, (Son Düzenleme: 10-04-2016, Saat: 14:29, Düzenleyen: TD Suspect Man.)
#1
HDRip  Terkedilmiş - The Abandoned (2015) HDRip XviD HDTurk - Türkçe Dublaj - Torrent İndir
cXi67TM.jpg

j5MDH3b.png
Yapımı : 2015 - ABD
Tür : Gerilim ,  Gizem ,  Korku
Süre: 86 Dak.
Yönetmen : Eytan Rockaway
Oyuncular : Jason Patric ,  Mark Margolis ,  Carlos Velazquez ,  Louisa Krause ,  Henry Kelemen
Senaryo : Eytan Rockaway
Yapımcı : Carlos Velazquez ,  Allan Loeb

Streak, psikolojik çöküntü içinde olan genç bir kadındır. Güvenlik görevlisi olarak bir zamanlar lüks, şimdi terkedilmiş olan bir yerdeki mezarlıkta işe girer. Ama işinde ilk gecesinde, çürüyen binanın derinlerinde gizlenen korkunç bir varlığı keşfeder. Sinirleri zaten dağılmaya yüz tutmuş Streak, yerinde olmayan akıl sağlığını gerçekle hayal arasında tutmaya çalışır.
Kod:
Format                         : AVI
Format/Info                    : Audio Video Interleave
File size                      : 1.37 GiB
Duration                       : 1h 25mn
Overall bit rate               : 2 277 Kbps
Writing application            : VirtualDubMod 1.5.10.2 (build 2540/release)
Writing library                : VirtualDubMod build 2540/release

Video
ID                             : 0
Format                         : MPEG-4 Visual
Format profile                 : Advanced [email protected]
Format settings, BVOP          : 1
Format settings, QPel          : No
Format settings, GMC           : No warppoints
Format settings, Matrix        : Default (H.263)
Muxing mode                    : Packed bitstream
Codec ID                       : XVID
Codec ID/Hint                  : XviD
Duration                       : 1h 25mn
Bit rate                       : 2 075 Kbps
Width                          : 720 pixels
Height                         : 384 pixels
Display aspect ratio           : 1.85:1
Frame rate                     : 23.976 fps
Color space                    : YUV
Chroma subsampling             : 4:2:0
Bit depth                      : 8 bits
Scan type                      : Progressive
Compression mode               : Lossy
Bits/(Pixel*Frame)             : 0.313
Stream size                    : 1.24 GiB (91%)
Writing library                : XviD 64

Audio
ID                             : 1
Format                         : AC-3
Format/Info                    : Audio Coding 3
Mode extension                 : CM (complete main)
Format settings, Endianness    : Big
Codec ID                       : 2000
Duration                       : 1h 25mn
Bit rate mode                  : Constant
Bit rate                       : 192 Kbps
Channel(s)                     : 2 channels
Channel positions              : Front: L R
Sampling rate                  : 48.0 KHz
Compression mode               : Lossy
Stream size                    : 118 MiB (8%)
Alignment                      : Split accross interleaves
Interleave, duration           : 42 ms (1.00 video frame)
Interleave, preload duration   : 500 ms
lFOnER3.png
ZkaJOz.jpg
b6WeH2N.png


Q0G88mc.png
"Ekli Dosyalar" kısmından indirebilirsiniz.

[hide]Filmi indirmek için TIKLAYINIZ.
En son filmleri ilk önce indirmek için "VİP" üye olunuz![/hide]

Önemli Not: Lütfen indirdiğiniz torrentleri yükleme işlemi bittikten sonra seed (gönderme) ediniz.
Yorum yapmayı unutmayınız. Emeğe karşı istediklerimizi yapmak zor değil.


Ek Dosyalar

Cevapla
10-04-2016, Saat: 14:48,
#2
RE: Terkedilmiş - The Abandoned (2015) HDRip XviD HDTurk - Türkçe Dublaj - Torrent İndir
tesekkurler
Cevapla
10-04-2016, Saat: 18:00,
#3
RE: Terkedilmiş - The Abandoned (2015) HDRip XviD HDTurk - Türkçe Dublaj - Torrent İndir
teşekkürler
Cevapla
11-04-2016, Saat: 13:44,
#4
RE: Terkedilmiş - The Abandoned (2015) HDRip XviD HDTurk - Türkçe Dublaj - Torrent İndir
Teşekkürler.
Cevapla
18-05-2016, Saat: 19:54,
#5
RE: Terkedilmiş - The Abandoned (2015) HDRip XviD HDTurk - Türkçe Dublaj - Torrent İndir
teşekkürler
Cevapla


Konu ile Alakalı Benzer Konular
Konular Yazar Yorumlar Okunma Son Yorum
  Vatikan Kayıtları (2015) - The Vatican Tapes - BRRip - Türkçe Dublaj - Torrent İndir TD Dante1905™ 266 28,203 04-07-2017, Saat: 14:10
Son Yorum: riberymami
  Nightworld (2017) HDRip XviD Türkçe Dublaj Full Film İndir heymam2bab 0 179 03-07-2017, Saat: 18:20
Son Yorum: heymam2bab
BRRip İnsanlığın Sonu - Extinction (2015) - BRRip XviD - Türkçe Dublaj - Torrent İndir TD Suspect Man 21 8,473 11-06-2017, Saat: 00:20
Son Yorum: ahmet06
torrent Lazarus Etkisi – The Lazarus Effect (2015) –TR BDRip –Türkçe Dublaj-Torrent İndir WaRGoD 30 35,285 10-05-2017, Saat: 01:18
Son Yorum: by_elektrost
HDRip Anna - The Exorcism of Anna Ecklund - 2016 - hdrip - Türkçe Dublaj - Torrent İndir TD TavukSuyunaÇorba 4 892 29-04-2017, Saat: 21:59
Son Yorum: yapyalauzadam

Hızlı Menü:

Konuyu Okuyanlar: 1 Ziyaretçi
Torrent Oyun Torrent film film indir