Bilgi? 5 Bin Tl Para Ödülü Kazanmak İster misiniz ? Detaylı bilgi için ["TIKLAYINIZ."]
#BaşvuruYap Yetkili Alımları Başlamıştır! Sitede Görevli Olmak İsteyen Arkadaşlar Konuyu İnceleyebilir, Detaylar İçin: ["TIKLAYINIZ."]
Süper:) VİP Üyelik Ayrıcalıklarından Yararlanmak İçin Buraya! Ömür Boyu VİP Üye Olabilirsiniz Detaylar Konumuzda: ["TIKLAYINIZ."]
Dikkat! Emeklere Karşılık Olarak Konulara Yorumlarını Eksik Etmeyiniz. Kurallara Uymayanlar Siteden Men Edilecektir! Torrentleri Seed Ediniz.!
Konuyu Oyla:
  • Derecelendirme: 0/5 - 0 oy
  • 1
  • 2
  • 3
  • 4
  • 5
Şifacı - Healing (2014) - BRRip XviD HDTurk - Türkçe Dublaj - Torrent İndir
29-03-2016, Saat: 08:10, (Son Düzenleme: 29-03-2016, Saat: 08:11, Düzenleyen: TD Suspect Man.)
#1
BRRip  Şifacı - Healing (2014) - BRRip XviD HDTurk - Türkçe Dublaj - Torrent İndir
E45NmY0.jpg

j5MDH3b.png
Yapımı : 2014 - Avustralya
Tür : Dram
Yönetmen : Craig Monahan
Oyuncular : Hugo Weaving ,  Xavier Samuel ,  Laura Brent ,  Justine Clarke ,  Don Hany
Senaryo : Craig Monahan ,  Alison Nisselle
Yapımcı : Tait Brady ,  Craig Monahan

Yaşamını bir çiftlikte mahkum halde sürdüren Viktor Kahdem hayatından vazgeçmek üzeredir. Bu sırada Matt Perry isimli bir adam ise Viktor gibi mahkumların rehabilitesi için bir program bulmuştur.
Kod:
Format                                   : Matroska
Format version                           : Version 4 / Version 2
File size                                : 1.43 GiB
Duration                                 : 1h 59mn
Overall bit rate                         : 1 722 Kbps
Encoded date                             : UTC 2016-03-26 21:11:37
Writing application                      : mkvmerge v8.9.0 ('Father Daughter') 32bit
Writing library                          : libebml v1.3.3 + libmatroska v1.4.4
DURATION                                 : 01:59:14.184000000
NUMBER_OF_FRAMES                         : 298091
NUMBER_OF_BYTES                          : 114466944
_STATISTICS_WRITING_APP                  : mkvmerge v8.9.0 ('Father Daughter') 32bit
_STATISTICS_WRITING_DATE_UTC             : 2016-03-26 21:11:37
_STATISTICS_TAGS                         : BPS DURATION NUMBER_OF_FRAMES NUMBER_OF_BYTES

Video
ID                                       : 1
Format                                   : MPEG-4 Visual
Format profile                           : [email protected]
Format settings, BVOP                    : No
Format settings, QPel                    : No
Format settings, GMC                     : No warppoints
Format settings, Matrix                  : Default (H.263)
Codec ID                                 : FMP4
Duration                                 : 1h 59mn
Bit rate                                 : 1 559 Kbps
Width                                    : 720 pixels
Height                                   : 306 pixels
Display aspect ratio                     : 2.35:1
Frame rate mode                          : Variable
Frame rate                               : 23.976 fps
Color space                              : YUV
Chroma subsampling                       : 4:2:0
Bit depth                                : 8 bits
Scan type                                : Progressive
Compression mode                         : Lossy
Bits/(Pixel*Frame)                       : 0.295
Stream size                              : 1.30 GiB (91%)
Title                                    :
Writing library                          : Lavc56.14.100
Default                                  : Yes
Forced                                   : No

Audio
ID                                       : 2
Format                                   : MPEG Audio
Format version                           : Version 1
Format profile                           : Layer 3
Mode                                     : Joint stereo
Mode extension                           : MS Stereo
Codec ID                                 : A_MPEG/L3
Codec ID/Hint                            : MP3
Duration                                 : 1h 59mn
Bit rate mode                            : Constant
Bit rate                                 : 128 Kbps
Channel(s)                               : 2 channels
Sampling rate                            : 48.0 KHz
Compression mode                         : Lossy
Stream size                              : 109 MiB (7%)
Title                                    :
Default                                  : Yes
Forced                                   : No
lFOnER3.png
1v6R1B.jpg
LAljk0.jpg
rM5GWa.jpg
b6WeH2N.png


Q0G88mc.png
"Ekli Dosyalar" kısmından indirebilirsiniz.

[hide]Filmi indirmek için TIKLAYINIZ.
En son filmleri ilk önce indirmek için "VİP" üye olunuz![/hide]

Önemli Not: Lütfen indirdiğiniz torrentleri yükleme işlemi bittikten sonra seed (gönderme) ediniz.
Yorum yapmayı unutmayınız. Emeğe karşı istediklerimizi yapmak zor değil.


Ek Dosyalar

Cevapla
31-03-2016, Saat: 12:15,
#2
RE: Şifacı - Healing (2014) - BRRip XviD HDTurk - Türkçe Dublaj - Torrent İndir
eyw tesekkur
Cevapla
31-03-2016, Saat: 13:25,
#3
RE: Şifacı - Healing (2014) - BRRip XviD HDTurk - Türkçe Dublaj - Torrent İndir
Teşekkürlerrr
Cevapla
02-04-2016, Saat: 13:48,
#4
RE: Şifacı - Healing (2014) - BRRip XviD HDTurk - Türkçe Dublaj - Torrent İndir
Teşekkürler Güzel film
Cevapla
09-08-2016, Saat: 20:33,
#5
Cvp: Şifacı - Healing (2014) - BRRip XviD HDTurk - Türkçe Dublaj - Torrent İndir
Passkey resetlendiği icin bu sunumu indiremezsiniz, sitenin alındığı hdturk.org indirebilirsiniz
Cevapla
25-12-2016, Saat: 11:48,
#6
RE: Şifacı - Healing (2014) - BRRip XviD HDTurk - Türkçe Dublaj - Torrent İndir
eyvallahaaaaa
Cevapla


Konu ile Alakalı Benzer Konular
Konular Yazar Yorumlar Okunma Son Yorum
BRRip Hain Our Kind Of Traitor 2016 TR BRRip x264 Türkçe Dublaj Torrent İndir TD MĀçĀ ₭ıƵı 8 1,785 28-05-2017, Saat: 20:33
Son Yorum: fustuntepe
BRRip Creed: Efsanenin Doğuşu - Rocky 7 (2015) BRRip - XViD - Türkçe Dublaj - Torrent İndir Asker00 13 1,178 23-05-2017, Saat: 18:49
Son Yorum: şestov
BRRip Milyonluk Bebek - (2004) -BRRip-Türkçe Dublaj-x264-AC3 - Torrent İndir Xearves 1 353 07-05-2017, Saat: 17:24
Son Yorum: herqul
BRRip Prestij - The Prestige (2006) - BRRip XviD - Türkçe Dublaj - Torrent İndir TD Suspect Man 3 537 07-05-2017, Saat: 16:09
Son Yorum: herqul
BRRip Örümceğin Maskesi - 2001 - BRRip - Türkçe Dublaj - Torrent İndir TD TavukSuyunaÇorba 5 580 06-05-2017, Saat: 19:17
Son Yorum: yapyalauzadam

Hızlı Menü:

Konuyu Okuyanlar: 1 Ziyaretçi
Torrent Oyun Torrent film film indir