Bilgi? 5 Bin Tl Para Ödülü Kazanmak İster misiniz ? Detaylı bilgi için ["TIKLAYINIZ."]
#BaşvuruYap Yetkili Alımları Başlamıştır! Sitede Görevli Olmak İsteyen Arkadaşlar Konuyu İnceleyebilir, Detaylar İçin: ["TIKLAYINIZ."]
Süper:) VİP Üyelik Ayrıcalıklarından Yararlanmak İçin Buraya! Ömür Boyu VİP Üye Olabilirsiniz Detaylar Konumuzda: ["TIKLAYINIZ."]
Dikkat! Emeklere Karşılık Olarak Konulara Yorumlarını Eksik Etmeyiniz. Kurallara Uymayanlar Siteden Men Edilecektir! Torrentleri Seed Ediniz.!
Konuyu Oyla:
  • Derecelendirme: 0/5 - 0 oy
  • 1
  • 2
  • 3
  • 4
  • 5
Öfkenin Ötesinde (2012) BRRip XviD HDTurk - Türkçe Dublaj - Torrent İndir
29-03-2016, Saat: 07:42, (Son Düzenleme: 29-03-2016, Saat: 07:43, Düzenleyen: TD Suspect Man.)
#1
BRRip  Öfkenin Ötesinde (2012) BRRip XviD HDTurk - Türkçe Dublaj - Torrent İndir
BEeQ66H.jpg

j5MDH3b.png
Polis organize suçların üzerine kararlı bir şekilde gitmeye kalkınca Yakuza çeteleri arasında ülke çapında ciddi bir kavga patlak verir.
Kod:
Format                         : AVI
Format/Info                    : Audio Video Interleave
File size                      : 694 MiB
Duration                       : 1h 52mn
Overall bit rate               : 862 Kbps
Writing application            : VirtualDubMod 1.5.10.2 (build 2542/release)
Writing library                : VirtualDubMod build 2542/release

Video
ID                             : 0
Format                         : MPEG-4 Visual
Format profile                 : Advanced [email protected]
Format settings, BVOP          : 2
Format settings, QPel          : No
Format settings, GMC           : No warppoints
Format settings, Matrix        : Custom
Muxing mode                    : Packed bitstream
Codec ID                       : XVID
Codec ID/Hint                  : XviD
Duration                       : 1h 52mn
Bit rate                       : 725 Kbps
Width                          : 672 pixels
Height                         : 288 pixels
Display aspect ratio           : 2.35:1
Frame rate                     : 23.976 (23976/1000) fps
Color space                    : YUV
Chroma subsampling             : 4:2:0
Bit depth                      : 8 bits
Scan type                      : Progressive
Compression mode               : Lossy
Bits/(Pixel*Frame)             : 0.156
Stream size                    : 583 MiB (84%)
Writing library                : XviD 1.1.2 (UTC 2006-11-01)

Audio
ID                             : 1
Format                         : MPEG Audio
Format version                 : Version 1
Format profile                 : Layer 3
Mode                           : Joint stereo
Mode extension                 : MS Stereo
Codec ID                       : 55
Codec ID/Hint                  : MP3
Duration                       : 1h 52mn
Bit rate mode                  : Constant
Bit rate                       : 128 Kbps
Channel(s)                     : 2 channels
Sampling rate                  : 48.0 KHz
Compression mode               : Lossy
Stream size                    : 103 MiB (15%)
Alignment                      : Aligned on interleaves
Interleave, duration           : 42 ms (1.00 video frame)
Interleave, preload duration   : 504 ms
Writing library                : LAME3.98.4
lFOnER3.png
PkDN1O.jpg
b6WeH2N.png


Q0G88mc.png
"Ekli Dosyalar" kısmından indirebilirsiniz.

[hide]Filmi indirmek için TIKLAYINIZ.
En son filmleri ilk önce indirmek için "VİP" üye olunuz![/hide]

Önemli Not: Lütfen indirdiğiniz torrentleri yükleme işlemi bittikten sonra seed (gönderme) ediniz.
Yorum yapmayı unutmayınız. Emeğe karşı istediklerimizi yapmak zor değil.


Ek Dosyalar

Cevapla
31-03-2016, Saat: 13:26,
#2
RE: Öfkenin Ötesinde (2012) BRRip XviD HDTurk - Türkçe Dublaj - Torrent İndir
Teşekkürlerrr
Cevapla
03-04-2016, Saat: 00:24,
#3
RE: Öfkenin Ötesinde (2012) BRRip XviD HDTurk - Türkçe Dublaj - Torrent İndir
teşekkürler..
Cevapla


Konu ile Alakalı Benzer Konular
Konular Yazar Yorumlar Okunma Son Yorum
BRRip Görevimiz Tehlike 5 (2015) - BRRip XviD - Türkçe Dublaj - Torrent İndir TD Suspect Man 46 21,816 19-06-2017, Saat: 08:48
Son Yorum: lavinya73
  Büyük Soygun - The Hatton Garden Job | 2017 | HDRip XviD | Türkçe Dublaj Filmi indir heymam2bab 3 507 12-06-2017, Saat: 00:43
Son Yorum: alisiz71
BRRip Mısırın Tanrıları - Gods of Egypt (2016) BRRip HDTurk - Türkçe Dublaj - Torrent İndir TD Suspect Man 44 8,490 11-06-2017, Saat: 00:22
Son Yorum: ahmet06
torrent SUÇLU CRİMİNAL (2016) - BRRİP - TÜRKÇE DUBLAJ - TORRENT İNDİR tahir78 31 7,697 08-06-2017, Saat: 01:37
Son Yorum: çetin50
  Kandırılan Kadın - A Woman Deceived | 2017 | WEBRip XviD | Türkçe Dublaj indir heymam2bab 0 191 07-06-2017, Saat: 18:37
Son Yorum: heymam2bab

Hızlı Menü:

Konuyu Okuyanlar: 1 Ziyaretçi
Torrent Oyun Torrent film film indir