Bilgi? 5 Bin Tl Para Ödülü Kazanmak İster misiniz ? Detaylı bilgi için ["TIKLAYINIZ."]
#BaşvuruYap Yetkili Alımları Başlamıştır! Sitede Görevli Olmak İsteyen Arkadaşlar Konuyu İnceleyebilir, Detaylar İçin: ["TIKLAYINIZ."]
Süper:) VİP Üyelik Ayrıcalıklarından Yararlanmak İçin Buraya! Ömür Boyu VİP Üye Olabilirsiniz Detaylar Konumuzda: ["TIKLAYINIZ."]
Dikkat! Emeklere Karşılık Olarak Konulara Yorumlarını Eksik Etmeyiniz. Kurallara Uymayanlar Siteden Men Edilecektir! Torrentleri Seed Ediniz.!
Konuyu Oyla:
  • Derecelendirme: 4.5/5 - 6 oy
  • 1
  • 2
  • 3
  • 4
  • 5
Hep Yek (2015) - HDTV XviD HDTurk - Yerli Film - Torrent İndir
10-04-2016, Saat: 14:04, (Son Düzenleme: 10-04-2016, Saat: 14:04, Düzenleyen: TD Suspect Man.)
#1
Hdtv  Hep Yek (2015) - HDTV XviD HDTurk - Yerli Film - Torrent İndir
6ND9XjJ.jpg

j5MDH3b.png
Vizyon Tarihi: 05 Şubat 2016
Yapımı : 2016 - Türkiye
Tür : Komedi
Yönetmen : Ali Yorgancıoğlu
Oyuncular : Fırat Tanış ,  Gürkan Uygun ,  İnan Ulaş Torun ,  Gökhan Yıkılkan ,  Tuna Orhan
Senaryo : Bilal Kalyoncu ,  Suat Özkan ,  Alper Erze
Yapımcı : Bilal Kalyoncu

Cevat (Gürkan Uygun), Türkiye’nin nam salmış Kabadayılarından birinin şehvet düşkünü oğludur; uluslararası şöhrete sahip manken Camilla’yı (Denise Capezza) tutkulu aşkı sonucunda kaçırmaya karar verir. Bu kaçırma operasyonunu Cevat adına bir başka suç makinesi Ziya Baba (Yüksel Arıcı) üstlenmiştir. Ziya Camilla’yı kaçırır ve Camilla’yı bir paket içinde Cevat’a götürme görevini Şahin’e (Fırat Tanış) verir. Ancak Şahin, Cevat’a götürdüğü paketin içinde ne olduğunu bilmemektedir. Şahin paketi İzmir’den, İstanbul’a getirecektir. Şahin yola çıkarken Gürkan (Gökhan Yıkılkan) ve Altan (İnan Ulaş Torun) adında iki bela paratoneri ile yolu kesişmiş, onlar yüzünden Cevat’a götüreceği paketi kaybetmiştir. Bu sebeple Şahin hayatının en zor 48 saatini yaşamak zorunda kalacaktır.
Kod:
General
Complete name                            : C:\Users\ramazan57\Desktop\Hep Yek 2015 HDTV XviD - HD.mp4
Format                                   : MPEG-4
Format profile                           : Base Media / Version 2
Codec ID                                 : mp42
File size                                : 480 MiB
Duration                                 : 1h 23mn
Overall bit rate mode                    : Variable
Overall bit rate                         : 800 Kbps
Encoded date                             : UTC 2016-04-09 22:03:28
Tagged date                              : UTC 2016-04-09 22:03:28
Writing application                      : HandBrake 0.10.5 2016021100

Video
ID                                       : 1
Format                                   : AVC
Format/Info                              : Advanced Video Codec
Format profile                           : [email protected]
Format settings, CABAC                   : Yes
Format settings, ReFrames                : 4 frames
Codec ID                                 : avc1
Codec ID/Info                            : Advanced Video Coding
Duration                                 : 1h 23mn
Bit rate                                 : 640 Kbps
Width                                    : 720 pixels
Height                                   : 404 pixels
Display aspect ratio                     : 16:9
Frame rate mode                          : Variable
Frame rate                               : 23.976 fps
Minimum frame rate                       : 23.974 fps
Maximum frame rate                       : 23.981 fps
Color space                              : YUV
Chroma subsampling                       : 4:2:0
Bit depth                                : 8 bits
Scan type                                : Progressive
Bits/(Pixel*Frame)                       : 0.092
Stream size                              : 380 MiB (79%)
Writing library                          : x264 core 142 r2491 24e4fed
Encoding settings                        : cabac=1 / ref=3 / deblock=1:0:0 / analyse=0x3:0x113 / me=hex / subme=7 / psy=1 / psy_rd=1.00:0.00 / mixed_ref=1 / me_range=16 / chroma_me=1 / trellis=1 / 8x8dct=1 / cqm=0 / deadzone=21,11 / fast_pskip=1 / chroma_qp_offset=-2 / threads=12 / lookahead_threads=2 / sliced_threads=0 / nr=0 / decimate=1 / interlaced=0 / bluray_compat=0 / constrained_intra=0 / bframes=3 / b_pyramid=2 / b_adapt=1 / b_bias=0 / direct=1 / weightb=1 / open_gop=0 / weightp=2 / keyint=240 / keyint_min=24 / scenecut=40 / intra_refresh=0 / rc_lookahead=40 / rc=abr / mbtree=1 / bitrate=640 / ratetol=1.0 / qcomp=0.60 / qpmin=0 / qpmax=69 / qpstep=4 / vbv_maxrate=17500 / vbv_bufsize=17500 / nal_hrd=none / filler=0 / ip_ratio=1.40 / aq=1:1.00
Encoded date                             : UTC 2016-04-09 22:03:28
Tagged date                              : UTC 2016-04-09 22:03:28
Color primaries                          : BT.601 NTSC
Transfer characteristics                 : BT.709
Matrix coefficients                      : BT.601

Audio
ID                                       : 2
Format                                   : AAC
Format/Info                              : Advanced Audio Codec
Format profile                           : LC
Codec ID                                 : 40
Duration                                 : 1h 23mn
Bit rate mode                            : Variable
Bit rate                                 : 160 Kbps
Channel(s)                               : 2 channels
Channel positions                        : Front: L R
Sampling rate                            : 48.0 KHz
Compression mode                         : Lossy
Delay relative to video                  : 83ms
Stream size                              : 96.2 MiB (20%)
Title                                    : Stereo
Encoded date                             : UTC 2016-04-09 22:03:28
Tagged date                              : UTC 2016-04-09 22:03:28
lFOnER3.png
nMakLN.jpg
b6WeH2N.png


Q0G88mc.png
"Ekli Dosyalar" kısmından indirebilirsiniz.

[hide]Filmi indirmek için TIKLAYINIZ.
En son filmleri ilk önce indirmek için "VİP" üye olunuz![/hide]

Önemli Not: Lütfen indirdiğiniz torrentleri yükleme işlemi bittikten sonra seed (gönderme) ediniz.
Yorum yapmayı unutmayınız. Emeğe karşı istediklerimizi yapmak zor değil.


Ek Dosyalar

Cevapla
10-04-2016, Saat: 14:17,
#2
RE: Hep Yek (2015) - HDTV XviD HDTurk - Yerli Film - Torrent İndir
teşekkürler
Cevapla
10-04-2016, Saat: 14:36,
#3
RE: Hep Yek (2015) - HDTV XviD HDTurk - Yerli Film - Torrent İndir
TEŞEKKÜRLER
Cevapla
10-04-2016, Saat: 14:59,
#4
RE: Hep Yek (2015) - HDTV XviD HDTurk - Yerli Film - Torrent İndir
TEŞEKKÜRLER
Cevapla
10-04-2016, Saat: 15:20,
#5
RE: Hep Yek (2015) - HDTV XviD HDTurk - Yerli Film - Torrent İndir
sagolun
Cevapla
10-04-2016, Saat: 15:41,
#6
Cvp: Hep Yek (2015) - HDTV XviD HDTurk - Yerli Film - Torrent İndir
ellerine saglık
Cevapla
10-04-2016, Saat: 15:48,
#7
RE: Hep Yek (2015) - HDTV XviD HDTurk - Yerli Film - Torrent İndir
teşekürler
Cevapla
10-04-2016, Saat: 15:53,
#8
RE: Hep Yek (2015) - HDTV XviD HDTurk - Yerli Film - Torrent İndir
teşekkürler
Cevapla
10-04-2016, Saat: 16:21,
#9
RE: Hep Yek (2015) - HDTV XviD HDTurk - Yerli Film - Torrent İndir
eyvallajh
Cevapla
10-04-2016, Saat: 16:34,
#10
RE: Hep Yek (2015) - HDTV XviD HDTurk - Yerli Film - Torrent İndir
tesekkurlerrrrrr
Cevapla


Konu ile Alakalı Benzer Konular
Konular Yazar Yorumlar Okunma Son Yorum
  Recep İvedik 5 (2017) Film indir heymam2bab 106 13,003 6 saat önce
Son Yorum: prestij27
  Baş Belası | 2017 | Sansürsüz | WEB-DL x264 Yerli Film indir heymam2bab 6 1,131 Dün, Saat: 11:58
Son Yorum: bozkurtx19
  istanbul lKırmızısı | 2017 | Sansürsüz | Yerli Film indir heymam2bab 10 2,530 24-07-2017, Saat: 21:45
Son Yorum: efu57
  Tatlim Tatlim 2017.WEB-DL.XviD BTRG.avi Film İndir Tek Link bersan_kemal 0 260 24-07-2017, Saat: 01:45
Son Yorum: bersan_kemal
  Olanlar Oldu (2017)DVD9 Untouched.ISO Film İndir Tek Link bersan_kemal 0 218 24-07-2017, Saat: 01:37
Son Yorum: bersan_kemal

Hızlı Menü:

Konuyu Okuyanlar: 1 Ziyaretçi
Torrent Oyun Torrent film film indir