Bilgi? 5 Bin Tl Para Ödülü Kazanmak İster misiniz ? Detaylı bilgi için ["TIKLAYINIZ."]
#BaşvuruYap Yetkili Alımları Başlamıştır! Sitede Görevli Olmak İsteyen Arkadaşlar Konuyu İnceleyebilir, Detaylar İçin: ["TIKLAYINIZ."]
Süper:) VİP Üyelik Ayrıcalıklarından Yararlanmak İçin Buraya! Ömür Boyu VİP Üye Olabilirsiniz Detaylar Konumuzda: ["TIKLAYINIZ."]
Dikkat! Emeklere Karşılık Olarak Konulara Yorumlarını Eksik Etmeyiniz. Kurallara Uymayanlar Siteden Men Edilecektir! Torrentleri Seed Ediniz.!
Konuyu Oyla:
  • Derecelendirme: 3/5 - 2 oy
  • 1
  • 2
  • 3
  • 4
  • 5
Hep Yek (2015) - DVDRip XviD HDTurk - Yerli Film - Torrent İndir - Torrent Film İndir
23-04-2016, Saat: 15:17, (Son Düzenleme: 23-04-2016, Saat: 15:18, Düzenleyen: TD Suspect Man.)
#1
DVDRip  Hep Yek (2015) - DVDRip XviD HDTurk - Yerli Film - Torrent İndir - Torrent Film İndir
6ND9XjJ.jpg

j5MDH3b.png
Vizyon Tarihi: 05 Şubat 2016
Yapımı : 2016 - Türkiye
Tür : Komedi
Yönetmen : Ali Yorgancıoğlu
Oyuncular : Fırat Tanış ,  Gürkan Uygun ,  İnan Ulaş Torun ,  Gökhan Yıkılkan ,  Tuna Orhan
Senaryo : Bilal Kalyoncu ,  Suat Özkan ,  Alper Erze
Yapımcı : Bilal Kalyoncu


Cevat (Gürkan Uygun), Türkiye’nin nam salmış Kabadayılarından birinin şehvet düşkünü oğludur; uluslararası şöhrete sahip manken Camilla’yı (Denise Capezza) tutkulu aşkı sonucunda kaçırmaya karar verir. Bu kaçırma operasyonunu Cevat adına bir başka suç makinesi Ziya Baba (Yüksel Arıcı) üstlenmiştir. Ziya Camilla’yı kaçırır ve Camilla’yı bir paket içinde Cevat’a götürme görevini Şahin’e (Fırat Tanış) verir. Ancak Şahin, Cevat’a götürdüğü paketin içinde ne olduğunu bilmemektedir. Şahin paketi İzmir’den, İstanbul’a getirecektir. Şahin yola çıkarken Gürkan (Gökhan Yıkılkan) ve Altan (İnan Ulaş Torun) adında iki bela paratoneri ile yolu kesişmiş, onlar yüzünden Cevat’a götüreceği paketi kaybetmiştir. Bu sebeple Şahin hayatının en zor 48 saatini yaşamak zorunda kalacaktır.
Kod:
Complete name                            : Hep Yek (2016) Yerli Film DVDRip XviD -HD.avi
Format                                   : AVI
Format/Info                              : Audio Video Interleave
File size                                : 1.05 GiB
Duration                                 : 1h 25mn
Overall bit rate                         : 1 752 Kbps
Writing application                      : VirtualDubMod 1.5.10.2 (build 2540/release)
Writing library                          : VirtualDubMod build 2540/release

Video
ID                                       : 0
Format                                   : MPEG-4 Visual
Format profile                           : Advanced [email protected]
Format settings, BVOP                    : 2
Format settings, QPel                    : No
Format settings, GMC                     : No warppoints
Format settings, Matrix                  : Custom
Muxing mode                              : Packed bitstream
Codec ID                                 : XVID
Codec ID/Hint                            : XviD
Duration                                 : 1h 25mn
Bit rate                                 : 1 551 Kbps
Width                                    : 720 pixels
Height                                   : 400 pixels
Display aspect ratio                     : 16:9
Frame rate                               : 25.000 fps
Color space                              : YUV
Chroma subsampling                       : 4:2:0
Bit depth                                : 8 bits
Scan type                                : Progressive
Compression mode                         : Lossy
Bits/(Pixel*Frame)                       : 0.215
Stream size                              : 951 MiB (88%)
Writing library                          : XviD 1.2.1 (UTC 2008-12-04)

Audio
ID                                       : 1
Format                                   : MPEG Audio
Format version                           : Version 1
Format profile                           : Layer 3
Mode                                     : Joint stereo
Mode extension                           : MS Stereo
Codec ID                                 : 55
Codec ID/Hint                            : MP3
Duration                                 : 1h 25mn
Bit rate mode                            : Constant
Bit rate                                 : 192 Kbps
Channel(s)                               : 2 channels
Sampling rate                            : 48.0 KHz
Compression mode                         : Lossy
Stream size                              : 118 MiB (11%)
Alignment                                : Aligned on interleaves
Interleave, duration                     : 40 ms (1.00 video frame)
Interleave, preload duration             : 504 ms
Writing library                          : LAME3.98 K|ÕÄŒÞ ÇG
lFOnER3.png
oM9xHUN.jpg
BMS1bvL.jpg
rcw2yG1.jpg
b6WeH2N.png


Q0G88mc.png
"Ekli Dosyalar" kısmından indirebilirsiniz.

[hide]Filmi indirmek için TIKLAYINIZ.
En son filmleri ilk önce indirmek için "VİP" üye olunuz![/hide]

Önemli Not: Lütfen indirdiğiniz torrentleri yükleme işlemi bittikten sonra seed (gönderme) ediniz.
Yorum yapmayı unutmayınız. Emeğe karşı istediklerimizi yapmak zor değil.


Ek Dosyalar

Cevapla
23-04-2016, Saat: 17:46,
#2
RE: Hep Yek (2015) - DVDRip XviD HDTurk - Yerli Film - Torrent İndir - Torrent Film İndir
teşekkür
Cevapla
23-04-2016, Saat: 18:24,
#3
RE: Hep Yek (2015) - DVDRip XviD HDTurk - Yerli Film - Torrent İndir - Torrent Film İndir
paylaşım için teşekkürler...
Cevapla
24-04-2016, Saat: 00:30,
#4
RE: Hep Yek (2015) - DVDRip XviD HDTurk - Yerli Film - Torrent İndir - Torrent Film İndir
teşekkürler
Cevapla
24-04-2016, Saat: 20:55,
#5
RE: Hep Yek (2015) - DVDRip XviD HDTurk - Yerli Film - Torrent İndir - Torrent Film İndir
teşekkürler..
Cevapla
24-04-2016, Saat: 21:05,
#6
Cvp: Hep Yek (2015) - DVDRip XviD HDTurk - Yerli Film - Torrent İndir - Torrent Film İndir
Jzjsjsjshs
Cevapla
24-04-2016, Saat: 21:13,
#7
RE: Hep Yek (2015) - DVDRip XviD HDTurk - Yerli Film - Torrent İndir - Torrent Film İndir
RESEKKUR
Cevapla
25-04-2016, Saat: 04:10,
#8
RE: Hep Yek (2015) - DVDRip XviD HDTurk - Yerli Film - Torrent İndir - Torrent Film İndir
tesekkurler
Cevapla
25-04-2016, Saat: 19:41,
#9
RE: Hep Yek (2015) - DVDRip XviD HDTurk - Yerli Film - Torrent İndir - Torrent Film İndir
tesekürler
Cevapla
25-04-2016, Saat: 22:16,
#10
RE: Hep Yek (2015) - DVDRip XviD HDTurk - Yerli Film - Torrent İndir - Torrent Film İndir
sağolun varolon
Cevapla


Konu ile Alakalı Benzer Konular
Konular Yazar Yorumlar Okunma Son Yorum
  Recep İvedik 5 (2017) Film indir heymam2bab 96 11,587 Dün, Saat: 22:24
Son Yorum: bynews
  Cumali Ceber: Allah Seni Alsın Dvdrip HDTV Yerli Film indir heymam2bab 1 263 17-07-2017, Saat: 13:44
Son Yorum: shadows of the dying sun
  Tatlım Tatlım 2017 Sansürsüz 720p Yerli Film İndir heymam2bab 22 2,736 15-07-2017, Saat: 23:56
Son Yorum: differentdark
  Deccal (2015) - HDRip HDTurk - Yerli Film - Torrent İndir TD Dante1905™ 10 4,844 15-07-2017, Saat: 20:52
Son Yorum: sakyuz
  Yaşamak Güzel Şey | 2017 | DVDRip XviD Yerli film indir heymam2bab 1 772 15-07-2017, Saat: 18:41
Son Yorum: baykusee

Hızlı Menü:

Konuyu Okuyanlar: 1 Ziyaretçi
Torrent Oyun Torrent film film indir