Bilgi? 5 Bin Tl Para Ödülü Kazanmak İster misiniz ? Detaylı bilgi için ["TIKLAYINIZ."]
#BaşvuruYap Yetkili Alımları Başlamıştır! Sitede Görevli Olmak İsteyen Arkadaşlar Konuyu İnceleyebilir, Detaylar İçin: ["TIKLAYINIZ."]
Süper:) VİP Üyelik Ayrıcalıklarından Yararlanmak İçin Buraya! Ömür Boyu VİP Üye Olabilirsiniz Detaylar Konumuzda: ["TIKLAYINIZ."]
Dikkat! Emeklere Karşılık Olarak Konulara Yorumlarını Eksik Etmeyiniz. Kurallara Uymayanlar Siteden Men Edilecektir! Torrentleri Seed Ediniz.!
Konuyu Oyla:
  • Derecelendirme: 2.5/5 - 2 oy
  • 1
  • 2
  • 3
  • 4
  • 5
Gerçek Oyun (2013) - BRRip XviD HDTurk - Türkçe Dublaj - Torrent İndir
10-04-2016, Saat: 14:15, (Son Düzenleme: 10-04-2016, Saat: 14:15, Düzenleyen: TD Suspect Man.)
#1
BRRip  Gerçek Oyun (2013) - BRRip XviD HDTurk - Türkçe Dublaj - Torrent İndir
NDjFW6E.jpg

j5MDH3b.png
Çok uzak olmayan bir gelecekte, multimilyoner olan Steve Battier yaşlı ve hastadır. Bu yüzden bir şirketin teklifini kabul eder. RPG, yüksek bir parasal değer karşılığında tekrar genç olmayı onlara sağlar. Dünya çapında 10 saat boyunca 10 milyonerin, her saat 1'i ölecektir. Steve sonsuza kadar genç kalmak için elinden gelen herşeyi yapacaktır.
Kod:
Format                         : AVI
Format/Info                    : Audio Video Interleave
File size                      : 964 MiB
Duration                       : 1h 42mn
Overall bit rate               : 1 316 Kbps
Writing application            : Lavf55.12.100

Video
ID                             : 1
Format                         : MPEG-4 Visual
Format settings, BVOP          : No
Format settings, QPel          : No
Format settings, GMC           : No warppoints
Format settings, Matrix        : Default (H.263)
Codec ID                       : FMP4
Duration                       : 1h 42mn
Bit rate                       : 1 112 Kbps
Width                          : 720 pixels
Height                         : 302 pixels
Display aspect ratio           : 2.40:1
Frame rate                     : 24.000 fps
Color space                    : YUV
Chroma subsampling             : 4:2:0
Bit depth                      : 8 bits
Scan type                      : Progressive
Compression mode               : Lossy
Bits/(Pixel*Frame)             : 0.213
Stream size                    : 814 MiB (84%)
Writing library                : Lavc55.18.102

Audio
ID                             : 0
Format                         : MPEG Audio
Format version                 : Version 1
Format profile                 : Layer 3
Codec ID                       : 55
Codec ID/Hint                  : MP3
Duration                       : 1h 42mn
Bit rate mode                  : Constant
Bit rate                       : 192 Kbps
Channel(s)                     : 2 channels
Sampling rate                  : 44.1 KHz
Compression mode               : Lossy
Stream size                    : 141 MiB (15%)
Alignment                      : Aligned on interleaves
Interleave, duration           : 42 ms (1.00 video frame)
Writing library                : LAME3.99.5
lFOnER3.png
0naLzD.jpg
b6WeH2N.png


Q0G88mc.png
"Ekli Dosyalar" kısmından indirebilirsiniz.

[hide]Filmi indirmek için TIKLAYINIZ.
En son filmleri ilk önce indirmek için "VİP" üye olunuz![/hide]

Önemli Not: Lütfen indirdiğiniz torrentleri yükleme işlemi bittikten sonra seed (gönderme) ediniz.
Yorum yapmayı unutmayınız. Emeğe karşı istediklerimizi yapmak zor değil.


Ek Dosyalar

Cevapla
10-04-2016, Saat: 15:40,
#2
RE: Gerçek Oyun (2013) - BRRip XviD HDTurk - Türkçe Dublaj - Torrent İndir
teşekürler
Cevapla


Konu ile Alakalı Benzer Konular
Konular Yazar Yorumlar Okunma Son Yorum
Bdrip İntihar Timi: Gerçek Kötüler (2016) - BDRip x264 - Türkçe Dublaj - Torrent İndir TD Suspect Man 126 52,305 03-07-2017, Saat: 16:13
Son Yorum: besiktaslı28
BRRip Görevimiz Tehlike 5 (2015) - BRRip XviD - Türkçe Dublaj - Torrent İndir TD Suspect Man 46 22,032 19-06-2017, Saat: 08:48
Son Yorum: lavinya73
  Büyük Soygun - The Hatton Garden Job | 2017 | HDRip XviD | Türkçe Dublaj Filmi indir heymam2bab 3 559 12-06-2017, Saat: 00:43
Son Yorum: alisiz71
BRRip Mısırın Tanrıları - Gods of Egypt (2016) BRRip HDTurk - Türkçe Dublaj - Torrent İndir TD Suspect Man 44 8,691 11-06-2017, Saat: 00:22
Son Yorum: ahmet06
torrent SUÇLU CRİMİNAL (2016) - BRRİP - TÜRKÇE DUBLAJ - TORRENT İNDİR tahir78 31 7,829 08-06-2017, Saat: 01:37
Son Yorum: çetin50

Hızlı Menü:

Konuyu Okuyanlar: 1 Ziyaretçi
Torrent Oyun Torrent film film indir