Bilgi? 5 Bin Tl Para Ödülü Kazanmak İster misiniz ? Detaylı bilgi için ["TIKLAYINIZ."]
#BaşvuruYap Yetkili Alımları Başlamıştır! Sitede Görevli Olmak İsteyen Arkadaşlar Konuyu İnceleyebilir, Detaylar İçin: ["TIKLAYINIZ."]
Süper:) VİP Üyelik Ayrıcalıklarından Yararlanmak İçin Buraya! Ömür Boyu VİP Üye Olabilirsiniz Detaylar Konumuzda: ["TIKLAYINIZ."]
Dikkat! Emeklere Karşılık Olarak Konulara Yorumlarını Eksik Etmeyiniz. Kurallara Uymayanlar Siteden Men Edilecektir! Torrentleri Seed Ediniz.!
Konuyu Oyla:
  • Derecelendirme: 0/5 - 0 oy
  • 1
  • 2
  • 3
  • 4
  • 5
Geçmişin Gölgesinde (2015) - WEB-DL XviD HDTurk - Türkçe Dublaj - Torrent İndir
10-04-2016, Saat: 14:09, (Son Düzenleme: 10-04-2016, Saat: 14:09, Düzenleyen: TD Suspect Man.)
#1
Web-dl  Geçmişin Gölgesinde (2015) - WEB-DL XviD HDTurk - Türkçe Dublaj - Torrent İndir
lX3qTMR.jpg

j5MDH3b.png
Yapımı : 2015 - ABD
Tür : Dram ,  Gerilim ,  Romantik
Süre: 100 Dak.
Yönetmen : Rustam Branaman
Oyuncular : Sean Bean ,  Eva Longoria ,  Kate Walsh ,  Willa Ford ,  Shane Black
Senaryo : Rustam Branaman
Yapımcı : Luke Daniels ,  Andrew Sugerman

Filmde, içeriden yeni çıkmış bir boksör eskisinin geçmişiyle hesaplaşması ve hayata temiz bir başlangıç yapma çabaları anlatılıyor.
Kod:
Format                         : AVI
Format/Info                    : Audio Video Interleave
File size                      : 932 MiB
Duration                       : 1h 39mn
Overall bit rate               : 1 314 Kbps
Writing application            : Lavf55.12.100

Video
ID                             : 1
Format                         : MPEG-4 Visual
Format settings, BVOP          : No
Format settings, QPel          : No
Format settings, GMC           : No warppoints
Format settings, Matrix        : Default (H.263)
Codec ID                       : FMP4
Duration                       : 1h 39mn
Bit rate                       : 1 110 Kbps
Width                          : 720 pixels
Height                         : 300 pixels
Display aspect ratio           : 2.40:1
Frame rate                     : 23.976 fps
Color space                    : YUV
Chroma subsampling             : 4:2:0
Bit depth                      : 8 bits
Scan type                      : Progressive
Compression mode               : Lossy
Bits/(Pixel*Frame)             : 0.214
Stream size                    : 787 MiB (84%)
Writing library                : Lavc55.18.102

Audio
ID                             : 0
Format                         : MPEG Audio
Format version                 : Version 1
Format profile                 : Layer 3
Codec ID                       : 55
Codec ID/Hint                  : MP3
Duration                       : 1h 39mn
Bit rate mode                  : Constant
Bit rate                       : 192 Kbps
Channel(s)                     : 2 channels
Sampling rate                  : 44.1 KHz
Compression mode               : Lossy
Stream size                    : 136 MiB (15%)
Alignment                      : Aligned on interleaves
Interleave, duration           : 42 ms (1.00 video frame)
Writing library                : LAME3.99.5
lFOnER3.png
6PE8aN.jpg
b6WeH2N.png


Q0G88mc.png
"Ekli Dosyalar" kısmından indirebilirsiniz.

[hide]Filmi indirmek için TIKLAYINIZ.
En son filmleri ilk önce indirmek için "VİP" üye olunuz![/hide]

Önemli Not: Lütfen indirdiğiniz torrentleri yükleme işlemi bittikten sonra seed (gönderme) ediniz.
Yorum yapmayı unutmayınız. Emeğe karşı istediklerimizi yapmak zor değil.


Ek Dosyalar

Cevapla


Konu ile Alakalı Benzer Konular
Konular Yazar Yorumlar Okunma Son Yorum
BRRip Creed: Efsanenin Doğuşu - Rocky 7 (2015) BRRip - XViD - Türkçe Dublaj - Torrent İndir Asker00 13 1,237 23-05-2017, Saat: 18:49
Son Yorum: şestov
BRRip Prestij - The Prestige (2006) - BRRip XviD - Türkçe Dublaj - Torrent İndir TD Suspect Man 3 564 07-05-2017, Saat: 16:09
Son Yorum: herqul
Web-dl Ölümcül Fırtına - Deadly Voltage (2015) - WEB-DL - Türkçe Dublaj - Torrent İndir emir26han99 5 951 29-04-2017, Saat: 22:05
Son Yorum: yapyalauzadam
HDRip Affetmek - 2015 - hdrip - x264 - Türkçe Dublaj - Torrent İndir TD TavukSuyunaÇorba 3 619 29-04-2017, Saat: 22:02
Son Yorum: yapyalauzadam
BRRip Aşk Şarkısı - song one - 2014 - brrip - xvid - Türkçe Dublaj - Torrent İndir TD TavukSuyunaÇorba 3 559 29-04-2017, Saat: 21:53
Son Yorum: yapyalauzadam

Hızlı Menü:

Konuyu Okuyanlar: 1 Ziyaretçi
Torrent Oyun Torrent film film indir