Bilgi? 5 Bin Tl Para Ödülü Kazanmak İster misiniz ? Detaylı bilgi için ["TIKLAYINIZ."]
#BaşvuruYap Yetkili Alımları Başlamıştır! Sitede Görevli Olmak İsteyen Arkadaşlar Konuyu İnceleyebilir, Detaylar İçin: ["TIKLAYINIZ."]
Süper:) VİP Üyelik Ayrıcalıklarından Yararlanmak İçin Buraya! Ömür Boyu VİP Üye Olabilirsiniz Detaylar Konumuzda: ["TIKLAYINIZ."]
Dikkat! Emeklere Karşılık Olarak Konulara Yorumlarını Eksik Etmeyiniz. Kurallara Uymayanlar Siteden Men Edilecektir! Torrentleri Seed Ediniz.!
Konuyu Oyla:
  • Derecelendirme: 4/5 - 1 oy
  • 1
  • 2
  • 3
  • 4
  • 5
Evdeki Hayalet (2016) - 720p WEBRip XviD - Türkçe Dublaj - Torrent İndir
01-11-2016, Saat: 21:12, (Son Düzenleme: 01-11-2016, Saat: 21:14, Düzenleyen: TD Suspect Man.)
#1
720p  Evdeki Hayalet (2016) - 720p WEBRip XviD - Türkçe Dublaj - Torrent İndir
woVUyqW.jpg

I Am the Pretty Thing That Lives in the House 2016 torrent indir, I Am the Pretty Thing That Lives in the House 2016 torrent film indir
j5MDH3b.png
Hayalet hikayesinin içinde hayaletli bir hikaye... Bu duvarlar dile gelse anlatacakları güzel ve korkunç masallar var. Çok çabuk korkan, pimpirikli bir hemşire, gizli sırlarla dolu bir evde yaşayan bir korku romanı yazarının hasta bakıcılığını üstlenir.
Kod:
General
Unique ID : 206426186661477023119986670782602216588 (0x9B4C3CC7899A31E1B58433E1B81F048C)
Complete name : C:\Users\aliriza\Desktop\Downloads\Evdeki Hayalet I Am the Pretty Thing That Lives in the House 2016 TR 720p WEBRip XviD AC3.mkv
Format : Matroska
Format version : Version 4 / Version 2
File size : 2.04 GiB
Duration : 1 h 29 min
Overall bit rate : 3 273 kb/s
Encoded date : UTC 2016-10-31 14:30:34
Writing application : mkvmerge v9.2.0 ('Photograph') 64bit
Writing library : libebml v1.3.3 + libmatroska v1.4.4
Video
ID : 1
Format : MPEG-4 Visual
Format profile : [email protected]
Format settings, BVOP : No
Format settings, QPel : No
Format settings, GMC : No warppoints
Format settings, Matrix : Default (H.263)
Codec ID : V_MS/VFW/FOURCC / XVID
Codec ID/Hint : XviD
Duration : 1 h 29 min
Bit rate : 3 079 kb/s
Width : 1 280 pixels
Height : 690 pixels
Display aspect ratio : 1.85:1
Frame rate mode : Constant
Frame rate : 23.976 FPS
Color space : YUV
Chroma subsampling : 4:2:0
Bit depth : 8 bits
Scan type : Progressive
Compression mode : Lossy
Bits/(Pixel*Frame) : 0.145
Stream size : 1.92 GiB (94%)
Writing library : Lavc57.24.102
Default : Yes
Forced : No
Audio
ID : 2
Format : E-AC-3
Format/Info : Audio Coding 3
Format settings, Endianness : Big
Codec ID : A_EAC3
Duration : 1 h 29 min
Bit rate mode : Constant
Bit rate : 192 kb/s
Channel(s) : 6 channels
Channel positions : Front: L C R, Side: L R, LFE
Sampling rate : 48.0 kHz
Frame rate : 187.500 FPS (256 spf)
Compression mode : Lossy
Stream size : 122 MiB (6%)
Default : Yes
Forced : No
lFOnER3.png
ouaPFyE.jpg
Z9F5uGe.jpg
Gvdmtjj.jpg
GNNiQLx.jpg
b6WeH2N.png


Q0G88mc.png
"Ekli Dosyalar" kısmından indirebilirsiniz.

[hide]Filmi indirmek için TIKLAYINIZ.
En son filmleri ilk önce indirmek için "VİP" üye olunuz![/hide]

Önemli Not: Lütfen indirdiğiniz torrentleri yükleme işlemi bittikten sonra seed (gönderme) ediniz.
Yorum yapmayı unutmayınız. Emeğe karşı istediklerimizi yapmak zor değil.


Ek Dosyalar

Cevapla
05-11-2016, Saat: 13:22,
#2
RE: Evdeki Hayalet (2016) - 720p WEBRip XviD - Türkçe Dublaj - Torrent İndir
Merak ettim bakalım nasıl birşey çıkacak? Teşekkürler..
Cevapla
05-11-2016, Saat: 13:31,
#3
RE: Evdeki Hayalet (2016) - 720p WEBRip XviD - Türkçe Dublaj - Torrent İndir
saol hacı
Cevapla
07-11-2016, Saat: 20:23,
#4
Cvp: Evdeki Hayalet (2016) - 720p WEBRip XviD - Türkçe Dublaj - Torrent İndir
tşkler.
Cevapla
08-11-2016, Saat: 00:26,
#5
RE: Evdeki Hayalet (2016) - 720p WEBRip XviD - Türkçe Dublaj - Torrent İndir
teşekkürler harika
Cevapla
11-11-2016, Saat: 22:45,
#6
Cvp: Evdeki Hayalet (2016) - 720p WEBRip XviD - Türkçe Dublaj - Torrent İndir
teşekkürler
Cevapla
03-12-2016, Saat: 12:01,
#7
RE: Evdeki Hayalet (2016) - 720p WEBRip XviD - Türkçe Dublaj - Torrent İndir
teşekkürler
Cevapla
25-12-2016, Saat: 12:15,
#8
Cvp: Evdeki Hayalet (2016) - 720p WEBRip XviD - Türkçe Dublaj - Torrent İndir
emegınıze saglık
Cevapla
21-01-2017, Saat: 22:50,
#9
RE: Evdeki Hayalet (2016) - 720p WEBRip XviD - Türkçe Dublaj - Torrent İndir
teşekkürler sağolun
Cevapla
22-01-2017, Saat: 01:18,
#10
RE: Evdeki Hayalet (2016) - 720p WEBRip XviD - Türkçe Dublaj - Torrent İndir
teşekürler
Cevapla


Konu ile Alakalı Benzer Konular
Konular Yazar Yorumlar Okunma Son Yorum
Bdrip Piramitin Laneti - The Pyramid (2014) - BDRip XviD - Türkçe Dublaj - Torrent İndir TD Suspect Man 1 1,688 Dün, Saat: 12:58
Son Yorum: yasaratlas
  Nightworld (2017) HDRip XviD Türkçe Dublaj Full Film İndir heymam2bab 0 189 03-07-2017, Saat: 18:20
Son Yorum: heymam2bab
BRRip İnsanlığın Sonu - Extinction (2015) - BRRip XviD - Türkçe Dublaj - Torrent İndir TD Suspect Man 21 8,565 11-06-2017, Saat: 00:20
Son Yorum: ahmet06
BRRip Lanetli Mesaj- (2016)-720p-BRRip- Türkçe Dublaj - x264-AC3- Torrent İndir Xearves 4 810 10-05-2017, Saat: 18:39
Son Yorum: onursayin
Bdrip Ölüm Alfabesi Kötülüğün Başlangıcı - 2016 - BDRIP - Türkçe Dublaj - Torrent İndir TD TavukSuyunaÇorba 2 714 07-05-2017, Saat: 16:21
Son Yorum: herqul

Hızlı Menü:

Konuyu Okuyanlar: 1 Ziyaretçi
Torrent Oyun Torrent film film indir