Bilgi? 5 Bin Tl Para Ödülü Kazanmak İster misiniz ? Detaylı bilgi için ["TIKLAYINIZ."]
#BaşvuruYap Yetkili Alımları Başlamıştır! Sitede Görevli Olmak İsteyen Arkadaşlar Konuyu İnceleyebilir, Detaylar İçin: ["TIKLAYINIZ."]
Süper:) VİP Üyelik Ayrıcalıklarından Yararlanmak İçin Buraya! Ömür Boyu VİP Üye Olabilirsiniz Detaylar Konumuzda: ["TIKLAYINIZ."]
Dikkat! Emeklere Karşılık Olarak Konulara Yorumlarını Eksik Etmeyiniz. Kurallara Uymayanlar Siteden Men Edilecektir! Torrentleri Seed Ediniz.!
Konuyu Oyla:
  • Derecelendirme: 4/5 - 1 oy
  • 1
  • 2
  • 3
  • 4
  • 5
En İyi Teklif - The Best Offer (2013) BRRip HDTurk - Türkçe Altyazılı - Torrent İndir
29-03-2016, Saat: 08:01, (Son Düzenleme: 29-03-2016, Saat: 08:01, Düzenleyen: TD Suspect Man.)
#1
BRRip  En İyi Teklif - The Best Offer (2013) BRRip HDTurk - Türkçe Altyazılı - Torrent İndir
q4IpIMw.jpg

j5MDH3b.png
Yapımı : 2013 - İtalya
Tür : Dram ,  Romantik ,  Suç
Süre: 131 Dak.
Yönetmen : Giuseppe Tornatore
Oyuncular : Geoffrey Rush ,  Jim Sturgess ,  Sylvia Hoeks ,  Donald Sutherland ,  Liya Kebede
Senaryo : Giuseppe Tornatore
Yapımcı : Guido De Laurentiis ,  Arturo Paglia
Diğer Adı : The Best Offer

İtalya'nın en tanınmış müzayede şirketlerinden birinin sahibi olan Virgil Oldman (Geoffrey Rush), antika alanının en iyilerinden olmasının yanı sıra çok değerli bir kişisel koleksiyona sahiptir. Ancak günün birinde Claire Ibbetson (Sylvia Hoeks) adında genç ve çok zengin, ancak oldukça tuhaf davranışları olan bir kadının, evindeki antikaları Virgil aracılığıyla satmak istemesi sonucu hayatı değişir. Claire'i daha yakından tanımak isteyen Virgil'in en büyük yardımcısı, genç bir saat tamircisi olan Robert (Jim Sturgess) olacaktır.
Kod:
Format                         : Matroska
Format version                 : Version 4 / Version 2
File size                      : 690 MiB
Duration                       : 2h 9mn
Overall bit rate               : 745 Kbps
Encoded date                   : UTC 2016-03-26 07:11:58
Writing application            : mkvmerge v8.9.0 ('Father Daughter') 32bit
Writing library                : libebml v1.3.3 + libmatroska v1.4.4
DURATION                       : 02:09:32.376000000
NUMBER_OF_FRAMES               : 323849
NUMBER_OF_BYTES                : 124358016
_STATISTICS_WRITING_APP        : mkvmerge v8.9.0 ('Father Daughter') 32bit
_STATISTICS_WRITING_DATE_UTC   : 2016-03-26 07:11:58
_STATISTICS_TAGS               : BPS DURATION NUMBER_OF_FRAMES NUMBER_OF_BYTES

Video
ID                             : 1
Format                         : MPEG-4 Visual
Format profile                 : Advanced [email protected]
Format settings, BVOP          : 3
Format settings, QPel          : No
Format settings, GMC           : No warppoints
Format settings, Matrix        : Custom
Codec ID                       : V_MS/VFW/FOURCC / XVID
Codec ID/Hint                  : XviD
Duration                       : 2h 9mn
Bit rate                       : 602 Kbps
Width                          : 672 pixels
Height                         : 288 pixels
Display aspect ratio           : 2.35:1
Frame rate mode                : Constant
Frame rate                     : 24.000 fps
Color space                    : YUV
Chroma subsampling             : 4:2:0
Bit depth                      : 8 bits
Scan type                      : Progressive
Compression mode               : Lossy
Bits/(Pixel*Frame)             : 0.130
Stream size                    : 557 MiB (81%)
Title                          :
Writing library                : XviD 1.2.1 (UTC 2008-12-04)
Default                        : Yes
Forced                         : No

Audio
ID                             : 2
Format                         : MPEG Audio
Format version                 : Version 1
Format profile                 : Layer 3
Mode                           : Joint stereo
Mode extension                 : MS Stereo
Codec ID                       : A_MPEG/L3
Codec ID/Hint                  : MP3
Duration                       : 2h 9mn
Bit rate mode                  : Constant
Bit rate                       : 128 Kbps
Channel(s)                     : 2 channels
Sampling rate                  : 48.0 KHz
Compression mode               : Lossy
Stream size                    : 119 MiB (17%)
Title                          :
Default                        : Yes
Forced                         : No
lFOnER3.png
g8rlOZ.jpg
b6WeH2N.png


Q0G88mc.png
"Ekli Dosyalar" kısmından indirebilirsiniz.

[hide]Filmi indirmek için TIKLAYINIZ.
En son filmleri ilk önce indirmek için "VİP" üye olunuz![/hide]

dling.gif

Önemli Not: Lütfen indirdiğiniz torrentleri yükleme işlemi bittikten sonra seed (gönderme) ediniz.
Yorum yapmayı unutmayınız. Emeğe karşı istediklerimizi yapmak zor değil.


Ek Dosyalar

Cevapla
04-04-2016, Saat: 12:59,
#2
RE: En İyi Teklif - The Best Offer (2013) BRRip HDTurk - Türkçe Altyazılı - Torrent İndir
teşekkür
Cevapla
13-05-2016, Saat: 16:44,
#3
RE: En İyi Teklif - The Best Offer (2013) BRRip HDTurk - Türkçe Altyazılı - Torrent İndir
altyazısı yok ?
Cevapla
09-08-2016, Saat: 20:33,
#4
Cvp: En İyi Teklif - The Best Offer (2013) BRRip HDTurk - Türkçe Altyazılı - Torrent İndir
Passkey resetlendiği icin bu sunumu indiremezsiniz, sitenin alındığı hdturk.org indirebilirsiniz
Cevapla
03-02-2017, Saat: 23:01,
#5
RE: En İyi Teklif - The Best Offer (2013) BRRip HDTurk - Türkçe Altyazılı - Torrent İndir
karşıdan yükleme yapılamıyor . indirme geçersiz.
Cevapla


Konu ile Alakalı Benzer Konular
Konular Yazar Yorumlar Okunma Son Yorum
1080p Günah Şehri - 2005 - Türkçe Altyazılı - Torrent İndir ultrAslan 4 2,753 13-06-2017, Saat: 04:56
Son Yorum: limarodriquez
torrent Leon - Sevginin Gücü (1994) - BRRip 720p - Türkçe Altyazı- Torrent İndir Le Crouse 4 2,659 15-01-2017, Saat: 02:38
Son Yorum: laklak27
  Alacakaranlık Efsanesi: Şafak Vakti Bölüm 1 2011 Bluray 720p Türkçe Altyazılı Torrent TD ZeusunOğlu 1 662 11-01-2017, Saat: 15:37
Son Yorum: kayabeyli
  Term Life (2016) Türkçe Altyazılı - HDRip - Torrent İndir TD MĀçĀ ₭ıƵı 2 1,254 09-01-2017, Saat: 16:16
Son Yorum: 26androit26
1080p The Godfather - Baba (1972) - Türkçe Altyazılı - 1080p - Torrent İndir ultrAslan 5 8,423 13-11-2016, Saat: 21:46
Son Yorum: eomerkaya

Hızlı Menü:

Konuyu Okuyanlar: 1 Ziyaretçi
Torrent Oyun Torrent film film indir