Bilgi? 5 Bin Tl Para Ödülü Kazanmak İster misiniz ? Detaylı bilgi için ["TIKLAYINIZ."]
#BaşvuruYap Yetkili Alımları Başlamıştır! Sitede Görevli Olmak İsteyen Arkadaşlar Konuyu İnceleyebilir, Detaylar İçin: ["TIKLAYINIZ."]
Süper:) VİP Üyelik Ayrıcalıklarından Yararlanmak İçin Buraya! Ömür Boyu VİP Üye Olabilirsiniz Detaylar Konumuzda: ["TIKLAYINIZ."]
Dikkat! Emeklere Karşılık Olarak Konulara Yorumlarını Eksik Etmeyiniz. Kurallara Uymayanlar Siteden Men Edilecektir! Torrentleri Seed Ediniz.!
Konuyu Oyla:
  • Derecelendirme: 0/5 - 0 oy
  • 1
  • 2
  • 3
  • 4
  • 5
Emelie (2015) - BRRip XviD HDTurk - Türkçe Dublaj - Torrent İndir
29-03-2016, Saat: 08:17, (Son Düzenleme: 29-03-2016, Saat: 08:17, Düzenleyen: TD Suspect Man.)
#1
BRRip  Emelie (2015) - BRRip XviD HDTurk - Türkçe Dublaj - Torrent İndir
w1D7ep2.jpg

j5MDH3b.png
Yapımı : 2015 - ABD
Tür : Gerilim
Süre: 80 Dak.
Yönetmen : Michael Thelin
Oyuncular : Sarah Bolger ,  Joshua Rush ,  Carly Adams ,  Carl Bailey ,  Thomas Bair
Senaryo : Michael Thelin
Yapımcı : Michael Thelin

Dan ve Joy, her zaman onlara yardım eden bakıcıları Maggie, o gece musait olmayınca onun arkadaşı olan Anna’yı çağırırlar. Böylelikle evlilik yıldönümleri için akşam yemeğine gidebileceklerdir. Başta çok eğlenceli ve iyi biri gibi görünen Anna, bir süre sonra üç çocuk üzerinde de psikolojik işkenceler uygulamaya başlar. Evin en büyük çocuğu Jacob, Anna’nın kimliğine baktığında ise onlara bakan kişinin Emelie adında bir başkası olduğunu görecektir.
Kod:
Format                                   : AVI
Format/Info                              : Audio Video Interleave
Format profile                           : OpenDML
Format settings                          : rec
File size                                : 702 MiB
Duration                                 : 1h 22mn
Overall bit rate                         : 1 197 Kbps
Writing application                      : AVI-Mux GUI 1.17.8.3, Feb 16 201019:42:50

Video
ID                                       : 0
Format                                   : MPEG-4 Visual
Format profile                           : Advanced [email protected]
Format settings, BVOP                    : 2
Format settings, QPel                    : No
Format settings, GMC                     : No warppoints
Format settings, Matrix                  : Default (H.263)
Codec ID                                 : XVID
Codec ID/Hint                            : XviD
Duration                                 : 1h 22mn
Bit rate                                 : 1 060 Kbps
Width                                    : 720 pixels
Height                                   : 304 pixels
Display aspect ratio                     : 2.35:1
Frame rate                               : 23.976 fps
Color space                              : YUV
Chroma subsampling                       : 4:2:0
Bit depth                                : 8 bits
Scan type                                : Progressive
Compression mode                         : Lossy
Bits/(Pixel*Frame)                       : 0.202
Stream size                              : 622 MiB (89%)
Writing library                          : XviD 1.2.1 (UTC 2008-12-04)

Audio
ID                                       : 1
Format                                   : MPEG Audio
Format version                           : Version 1
Format profile                           : Layer 3
Mode                                     : Joint stereo
Mode extension                           : MS Stereo
Codec ID                                 : 55
Codec ID/Hint                            : MP3
Duration                                 : 1h 22mn
Bit rate mode                            : Constant
Bit rate                                 : 128 Kbps
Channel(s)                               : 2 channels
Sampling rate                            : 48.0 KHz
Compression mode                         : Lossy
Stream size                              : 75.1 MiB (11%)
Alignment                                : Aligned on interleaves
Interleave, duration                     : 24 ms (0.58 video frame)
Interleave, preload duration             : 192 ms
Title                                    : Emelie.2015.TR  
lFOnER3.png
m6M0oZ.jpg
E8mjDB.jpg
j3gd6D.jpg
b6WeH2N.png


Q0G88mc.png
"Ekli Dosyalar" kısmından indirebilirsiniz.

[hide]Filmi indirmek için TIKLAYINIZ.
En son filmleri ilk önce indirmek için "VİP" üye olunuz![/hide]

Önemli Not: Lütfen indirdiğiniz torrentleri yükleme işlemi bittikten sonra seed (gönderme) ediniz.
Yorum yapmayı unutmayınız. Emeğe karşı istediklerimizi yapmak zor değil.


Ek Dosyalar

Cevapla
29-03-2016, Saat: 12:37,
#2
Cvp: Emelie (2015) - BRRip XviD HDTurk - Türkçe Dublaj - Torrent İndir
teşekürler
Cevapla
29-03-2016, Saat: 22:44,
#3
RE: Emelie (2015) - BRRip XviD HDTurk - Türkçe Dublaj - Torrent İndir
teşekkrrr
Cevapla
30-03-2016, Saat: 12:39,
#4
RE: Emelie (2015) - BRRip XviD HDTurk - Türkçe Dublaj - Torrent İndir
Teşekkürler.
Cevapla
30-03-2016, Saat: 16:01,
#5
RE: Emelie (2015) - BRRip XviD HDTurk - Türkçe Dublaj - Torrent İndir
teşekkürler
Cevapla
31-03-2016, Saat: 13:24,
#6
RE: Emelie (2015) - BRRip XviD HDTurk - Türkçe Dublaj - Torrent İndir
Teşekkürlerrr
Cevapla
02-04-2016, Saat: 13:51,
#7
RE: Emelie (2015) - BRRip XviD HDTurk - Türkçe Dublaj - Torrent İndir
Teşekkürler Güzel film
Cevapla
15-05-2016, Saat: 18:29,
#8
RE: Emelie (2015) - BRRip XviD HDTurk - Türkçe Dublaj - Torrent İndir
teşekkürler emeğinize sağlık
Cevapla
11-06-2016, Saat: 00:10,
#9
RE: Emelie (2015) - BRRip XviD HDTurk - Türkçe Dublaj - Torrent İndir
teşekkürler
Cevapla
13-06-2016, Saat: 11:03,
#10
Cvp: Emelie (2015) - BRRip XviD HDTurk - Türkçe Dublaj - Torrent İndir
paylasım ıcın tskler
Cevapla


Konu ile Alakalı Benzer Konular
Konular Yazar Yorumlar Okunma Son Yorum
  Vatikan Kayıtları (2015) - The Vatican Tapes - BRRip - Türkçe Dublaj - Torrent İndir TD Dante1905™ 266 28,133 04-07-2017, Saat: 14:10
Son Yorum: riberymami
  Nightworld (2017) HDRip XviD Türkçe Dublaj Full Film İndir heymam2bab 0 177 03-07-2017, Saat: 18:20
Son Yorum: heymam2bab
BRRip İnsanlığın Sonu - Extinction (2015) - BRRip XviD - Türkçe Dublaj - Torrent İndir TD Suspect Man 21 8,463 11-06-2017, Saat: 00:20
Son Yorum: ahmet06
BRRip Lanetli Mesaj- (2016)-720p-BRRip- Türkçe Dublaj - x264-AC3- Torrent İndir Xearves 4 753 10-05-2017, Saat: 18:39
Son Yorum: onursayin
torrent Lazarus Etkisi – The Lazarus Effect (2015) –TR BDRip –Türkçe Dublaj-Torrent İndir WaRGoD 30 35,264 10-05-2017, Saat: 01:18
Son Yorum: by_elektrost

Hızlı Menü:

Konuyu Okuyanlar: 1 Ziyaretçi
Torrent Oyun Torrent film film indir