Bilgi? 5 Bin Tl Para Ödülü Kazanmak İster misiniz ? Detaylı bilgi için ["TIKLAYINIZ."]
#BaşvuruYap Yetkili Alımları Başlamıştır! Sitede Görevli Olmak İsteyen Arkadaşlar Konuyu İnceleyebilir, Detaylar İçin: ["TIKLAYINIZ."]
Süper:) VİP Üyelik Ayrıcalıklarından Yararlanmak İçin Buraya! Ömür Boyu VİP Üye Olabilirsiniz Detaylar Konumuzda: ["TIKLAYINIZ."]
Dikkat! Emeklere Karşılık Olarak Konulara Yorumlarını Eksik Etmeyiniz. Kurallara Uymayanlar Siteden Men Edilecektir! Torrentleri Seed Ediniz.!
Konuyu Oyla:
  • Derecelendirme: 0/5 - 0 oy
  • 1
  • 2
  • 3
  • 4
  • 5
Demir Atmak - The Mooring (2012) WEBRip XviD HDTurk - Türkçe Dublaj - Torrent İndir
29-03-2016, Saat: 07:52, (Son Düzenleme: 29-03-2016, Saat: 07:52, Düzenleyen: TD Suspect Man.)
#1
Web-dl  Demir Atmak - The Mooring (2012) WEBRip XviD HDTurk - Türkçe Dublaj - Torrent İndir
93v1HEz.jpg

j5MDH3b.png
Yapımı : 2012 - ABD
Tür : Gerilim ,  Korku
Süre: 90 Dak.
Yönetmen : Glenn Withrow
Oyuncular : Hallie Todd ,  Thomas Wilson Brown ,  Karli Blalock ,  Anna Goodwin ,  Larissa Hayden
Senaryo : Hallie Todd ,  Glenn Withrow ,  Ivy Withrow
Yapımcı : Hallie Todd ,  James Edington

Her 40 saniyede bir kişi kaçırılmaktadır. Kuzey Idahoda, bir Grup Genç Kız Kamp Yapmaktadır.Onlar Güzel Bir Yaz Kampı Düşlüyorlardı Fakat Her Şey Onların Düşündüğü Kadar Eğlenceli ve GüzeL Olmayacaktır…
Kod:
Format                         : AVI
Format/Info                    : Audio Video Interleave
File size                      : 700 MiB
Duration                       : 1h 29mn
Overall bit rate               : 1 088 Kbps
Writing application            : VirtualDubMod 1.5.10.2 (build 2542/release)
Writing library                : VirtualDubMod build 2542/release

Video
ID                             : 0
Format                         : MPEG-4 Visual
Format profile                 : Advanced [email protected]
Format settings, BVOP          : 4
Format settings, QPel          : No
Format settings, GMC           : No warppoints
Format settings, Matrix        : Default (H.263)
Codec ID                       : XVID
Codec ID/Hint                  : XviD
Duration                       : 1h 29mn
Bit rate                       : 951 Kbps
Width                          : 640 pixels
Height                         : 352 pixels
Display aspect ratio           : 16:9
Frame rate                     : 23.976 (24000/1001) fps
Color space                    : YUV
Chroma subsampling             : 4:2:0
Bit depth                      : 8 bits
Scan type                      : Progressive
Compression mode               : Lossy
Bits/(Pixel*Frame)             : 0.176
Stream size                    : 611 MiB (87%)
Writing library                : XviD 1.2.1 (UTC 2008-12-04)

Audio
ID                             : 1
Format                         : MPEG Audio
Format version                 : Version 1
Format profile                 : Layer 3
Mode                           : Joint stereo
Mode extension                 : MS Stereo
Codec ID                       : 55
Codec ID/Hint                  : MP3
Duration                       : 1h 29mn
Bit rate mode                  : Constant
Bit rate                       : 128 Kbps
Channel(s)                     : 2 channels
Sampling rate                  : 48.0 KHz
Compression mode               : Lossy
Stream size                    : 82.3 MiB (12%)
Alignment                      : Aligned on interleaves
Interleave, duration           : 42 ms (1.00 video frame)
Interleave, preload duration   : 504 ms
Writing library                : LAME3.99r
Encoding settings              : -m j -V 4 -q 2 -lowpass 17 -b 128
lFOnER3.png
8Zz5MQ.jpg
j36p8n.jpg
g86pqR.jpg
b6WeH2N.png


Q0G88mc.png
"Ekli Dosyalar" kısmından indirebilirsiniz.

[hide]Filmi indirmek için TIKLAYINIZ.
En son filmleri ilk önce indirmek için "VİP" üye olunuz![/hide]

Önemli Not: Lütfen indirdiğiniz torrentleri yükleme işlemi bittikten sonra seed (gönderme) ediniz.
Yorum yapmayı unutmayınız. Emeğe karşı istediklerimizi yapmak zor değil.


Ek Dosyalar

Cevapla
30-03-2016, Saat: 16:55,
#2
RE: Demir Atmak - The Mooring (2012) WEBRip XviD HDTurk - Türkçe Dublaj - Torrent İndir
Teşekkurler kardes
Cevapla
30-03-2016, Saat: 18:56,
#3
Cvp: Demir Atmak - The Mooring (2012) WEBRip XviD HDTurk - Türkçe Dublaj - Torrent İndir
Tesekkurler
Cevapla
31-03-2016, Saat: 13:26,
#4
RE: Demir Atmak - The Mooring (2012) WEBRip XviD HDTurk - Türkçe Dublaj - Torrent İndir
Teşekkürlerrr
Cevapla
02-04-2016, Saat: 13:46,
#5
RE: Demir Atmak - The Mooring (2012) WEBRip XviD HDTurk - Türkçe Dublaj - Torrent İndir
Teşekkürler Güzel film
Cevapla
09-08-2016, Saat: 20:33,
#6
Cvp: Demir Atmak - The Mooring (2012) WEBRip XviD HDTurk - Türkçe Dublaj - Torrent İndir
Passkey resetlendiği icin bu sunumu indiremezsiniz, sitenin alındığı hdturk.org indirebilirsiniz
Cevapla
01-12-2016, Saat: 19:01,
#7
RE: Demir Atmak - The Mooring (2012) WEBRip XviD HDTurk - Türkçe Dublaj - Torrent İndir
teşekkürler
Cevapla
03-12-2016, Saat: 11:54,
#8
RE: Demir Atmak - The Mooring (2012) WEBRip XviD HDTurk - Türkçe Dublaj - Torrent İndir
teşekkürler
Cevapla


Konu ile Alakalı Benzer Konular
Konular Yazar Yorumlar Okunma Son Yorum
  Nightworld (2017) HDRip XviD Türkçe Dublaj Full Film İndir heymam2bab 0 181 03-07-2017, Saat: 18:20
Son Yorum: heymam2bab
BRRip İnsanlığın Sonu - Extinction (2015) - BRRip XviD - Türkçe Dublaj - Torrent İndir TD Suspect Man 21 8,502 11-06-2017, Saat: 00:20
Son Yorum: ahmet06
BRRip Ben Kimim - Who Am I (2014) - BRRip XviD - Türkçe Dublaj - Torrent İndir TD Suspect Man 20 13,267 09-04-2017, Saat: 03:24
Son Yorum: delisado
  Korku Terapisi (2015) - Regression - BRRip HDTurk - Türkçe Dublaj - Torrent İndir TD Dante1905™ 17 3,514 01-03-2017, Saat: 14:09
Son Yorum: Darth.Maul
  Ölüler Yükseliyor (2015) - Dead Rising - BRRip HDTurk - Türkçe Dublaj - Torrent İndir TD Dante1905™ 6 1,896 25-02-2017, Saat: 13:58
Son Yorum: suffa03

Hızlı Menü:

Konuyu Okuyanlar: 1 Ziyaretçi
Torrent Oyun Torrent film film indir