Bilgi? 5 Bin Tl Para Ödülü Kazanmak İster misiniz ? Detaylı bilgi için ["TIKLAYINIZ."]
#BaşvuruYap Yetkili Alımları Başlamıştır! Sitede Görevli Olmak İsteyen Arkadaşlar Konuyu İnceleyebilir, Detaylar İçin: ["TIKLAYINIZ."]
Süper:) VİP Üyelik Ayrıcalıklarından Yararlanmak İçin Buraya! Ömür Boyu VİP Üye Olabilirsiniz Detaylar Konumuzda: ["TIKLAYINIZ."]
Dikkat! Emeklere Karşılık Olarak Konulara Yorumlarını Eksik Etmeyiniz. Kurallara Uymayanlar Siteden Men Edilecektir! Torrentleri Seed Ediniz.!
Konuyu Oyla:
  • Derecelendirme: 2/5 - 1 oy
  • 1
  • 2
  • 3
  • 4
  • 5
Dabbe 6 (2015) - CamRip AAC HDTurk - Yerli Film - Torrent İndir - Torrent Film İndir
19-03-2016, Saat: 19:23, (Son Düzenleme: 19-03-2016, Saat: 21:49, Düzenleyen: TD Suspect Man.)
#1
Cam  Dabbe 6 (2015) - CamRip AAC HDTurk - Yerli Film - Torrent İndir - Torrent Film İndir
M6W95FE.png

dabbe 6 torrent indir, dabbe 6 torrent film indir, dabbe 6 zehr-i mezar torrent, dabbe 6 zehr-i mezar film indir, dabbe 6 torrent full indir
j5MDH3b.png
Vizyon Tarihi: 11 Eylül 2015
Yapımı : 2015 - Türkiye
Tür : Korku
Süre: 160 Dak.
Yönetmen : Hasan Karacadağ
Oyuncular : Murat Seviş ,  Sema Şimşek ,  Nilay Gök ,  Fehmi Karaarslan
Diğer Adı : dabbe 6 zehr-i mezar

Dabbe serisi ile yerli korku sinema türünü damgasını vuran Hasan Karacadağ, hepsi cin temalı olan Dabbe filmlerine bir yenisini daha ekliyor. Serinin devam filminde en tehlikeli cin kabilesi olarak kabul edilen Cuhenna kabilesi beyazperdeye aktarılıyor. Filmin başrollerinde Murat Seviş, Sema Şimşek, Nilay Gök ve Fehmi Karaarslan yer alıyor.

Doktor olan Zeren ve kız kardeşi Ayla annelerinin bir gece aniden ölmesiyle sarsılır. Kriminal ve adli raporlara göre anneleri Mukadder beyin kanamasıyla ölmüştür fakat annesi öldüğünde onun yanında olan Ayla, bu durumu kabul etmemektedir. Ona göre annesi, ne olduğunu anlayamadığı çok hızlı hareket eden, kapkara yüzleri olan, bilinmeyen bir dilde konuşan, devasa kara varlıklar tarafından öldürülmüştür. Ancak olayı inceleyenler Ayla’nın bir tür psikolojik travma geçirdiğini ve kısa sürede bu durumu atlatacağını düşünürler. Ama günler geçtikçe Ayla kişilik değiştirmeye ve söz konusu varlıklar tarafından saldırıya uğramaya başlar. Ayla’yı başka bir aleme götürmeye ve ona işkence ederek, annesinin ölümüyle ilgili bir takım sırları göstermeye çalışan bu varlıklar kimdir?
Kod:
General
Complete name                            : /home/emre/data/Dabbe.6.2015.CamRip.mp4
Format                                   : MPEG-4
Format profile                           : Base Media
Codec ID                                 : isom
File size                                : 1.24 GiB
Duration                                 : 2h 28mn
Overall bit rate                         : 1 199 Kbps
Writing application                      : Lavf57.20.100

Video
ID                                       : 1
Format                                   : AVC
Format/Info                              : Advanced Video Codec
Format profile                           : [email protected]
Format settings, CABAC                   : No
Format settings, ReFrames                : 1 frame
Format settings, GOP                     : M=1, N=12
Codec ID                                 : avc1
Codec ID/Info                            : Advanced Video Coding
Duration                                 : 2h 28mn
Bit rate                                 : 1 063 Kbps
Width                                    : 424 pixels
Height                                   : 232 pixels
Display aspect ratio                     : 1.85:1
Frame rate mode                          : Constant
Frame rate                               : 29.970 fps
Color space                              : YUV
Chroma subsampling                       : 4:2:0
Bit depth                                : 8 bits
Scan type                                : Progressive
Bits/(Pixel*Frame)                       : 0.361
Stream size                              : 1.10 GiB (89%)

Audio
ID                                       : 2
Format                                   : AAC
Format/Info                              : Advanced Audio Codec
Format profile                           : LC
Codec ID                                 : 40
Duration                                 : 2h 28mn
Bit rate mode                            : Constant
Bit rate                                 : 128 Kbps
Channel(s)                               : 2 channels
Channel positions                        : Front: L R
Sampling rate                            : 44.1 KHz
Compression mode                         : Lossy
Stream size                              : 136 MiB (11%)
lFOnER3.png
aIJBpoj.jpg
TSdTsXy.jpg
b6WeH2N.png


Q0G88mc.png
Ekli dosyalar kısmından indirebilirsiniz.
[hide]
mesutcan8534 Üyemizin isteği üzerine konu açılmıştır, sinema çekimidir en kısa zamanda daha iyi bir kaliye ile sizlere yeni sunumu vereceğiz.


[/hide]


Ek Dosyalar

Cevapla
19-03-2016, Saat: 19:39,
#2
RE: Dabbe 6 (2015) - CamRip AAC HDTurk - Yerli Film - Torrent İndir - Torrent Film İndir
Darısı siccin 2 ye inşallah
Cevapla
19-03-2016, Saat: 21:39,
#3
RE: Dabbe 6 (2015) - CamRip AAC HDTurk - Yerli Film - Torrent İndir - Torrent Film İndir
dir, Dabbe 6 (2015) - CamRip AAC HDTurk - Yerli Film - Torrent İndir - Torrent Film İndir hızlı torrent indir, Dabbe 6 (2015) - CamRip AAC HDTurk - Yerli Film - Torrent İndir - Torrent Film İndir download
Cevapla
19-03-2016, Saat: 23:32,
#4
RE: Dabbe 6 (2015) - CamRip AAC HDTurk - Yerli Film - Torrent İndir - Torrent Film İndir
Teşekkürler.
Cevapla
19-03-2016, Saat: 23:52,
#5
Cvp: Dabbe 6 (2015) - CamRip AAC HDTurk - Yerli Film - Torrent İndir - Torrent Film İndir
Tesekkurler)))
Cevapla
20-03-2016, Saat: 00:12,
#6
RE: Dabbe 6 (2015) - CamRip AAC HDTurk - Yerli Film - Torrent İndir - Torrent Film İndir
teşekkürler
Cevapla
20-03-2016, Saat: 14:01,
#7
RE: Dabbe 6 (2015) - CamRip AAC HDTurk - Yerli Film - Torrent İndir - Torrent Film İndir
adamsınız
Cevapla
20-03-2016, Saat: 21:16,
#8
RE: Dabbe 6 (2015) - CamRip AAC HDTurk - Yerli Film - Torrent İndir - Torrent Film İndir
saasdasd
Cevapla
20-03-2016, Saat: 21:40,
#9
RE: Dabbe 6 (2015) - CamRip AAC HDTurk - Yerli Film - Torrent İndir - Torrent Film İndir
teşekkürler
Cevapla
21-03-2016, Saat: 06:09,
#10
Cvp: Dabbe 6 (2015) - CamRip AAC HDTurk - Yerli Film - Torrent İndir - Torrent Film İndir
teşekkürler
Cevapla


Konu ile Alakalı Benzer Konular
Konular Yazar Yorumlar Okunma Son Yorum
  Tatlim Tatlim 2017.WEB-DL.XviD BTRG.avi Film İndir Tek Link bersan_kemal 2 368 7 saat önce
Son Yorum: bersan_kemal
  Recep İvedik 5 (2017) Film indir heymam2bab 110 13,507 Dün, Saat: 19:58
Son Yorum: mattet
  Baş Belası | 2017 | Sansürsüz | WEB-DL x264 Yerli Film indir heymam2bab 6 1,156 25-07-2017, Saat: 11:58
Son Yorum: bozkurtx19
  istanbul lKırmızısı | 2017 | Sansürsüz | Yerli Film indir heymam2bab 10 2,565 24-07-2017, Saat: 21:45
Son Yorum: efu57
  Olanlar Oldu (2017)DVD9 Untouched.ISO Film İndir Tek Link bersan_kemal 0 264 24-07-2017, Saat: 01:37
Son Yorum: bersan_kemal

Hızlı Menü:

Konuyu Okuyanlar: 1 Ziyaretçi
Torrent Oyun Torrent film film indir